Divergent 2014 720p Esub BluRay Dual Audio English Hindi 5.1 GOPI SAHI torrent download locations



Torrent contents

Size: 1013.31 MB

Hash: 425EDB5B869DCF48651C389F00250AB4EA1D9776

Torrent description(s)

  • thepiratebay
  • Demonoid
[center][img]http://i.imgur.com/qtBLGSo.png[/img]
[img]http://i.imgur.com/cy8WhoH.png[/img]
Video
Format                         : AVC
Codec ID                       : V_MPEG4/ISO/AVC
Duration                       : 2 h 19 min
Bit rate                       : 835 kb/s
Width                          : 1 280 pixels
Height                         : 536 pixels
Display aspect ratio           : 2.40:1
Frame rate mode                : Constant
Frame rate                     : 23.976 (24000/1001) FPS
Original frame rate            : 23.976 (23976/1000) FPS
Stream size                    : 834 MiB (82%)
Writing library                : x264 core 142 r2409 d6b4e63

Audio #1
Format                         : AAC
Duration                       : 2 h 19 min
Bit rate                       : 85.9 kb/s
Channel(s)                     : 6 channels
Channel positions              : Front: L C R, Side: L R, LFE
Sampling rate                  : 44.1 kHz
Frame rate                     : 43.066 FPS (1024 spf)
Stream size                    : 85.8 MiB (8%)
Language                       : English

Audio #2
Format                         : AAC
Duration                       : 2 h 19 min
Bit rate                       : 90.5 kb/s
Channel(s)                     : 6 channels
Channel positions              : Front: L C R, Side: L R, LFE
Sampling rate                  : 44.1 kHz
Frame rate                     : 43.066 FPS (1024 spf)
Stream size                    : 90.4 MiB (9%)
Language                       : Hindi

TexDuration                       : 2 h 9 min
Stream size                    : 36.2 KiB (0%)
Language                       : English
[img]http://i.imgur.com/ikXHSDF.png[/img]
[img]http://i.imgur.com/hJEt5jy.jpg[/img]
[img]http://i.imgur.com/Ywanoku.jpg[/img]
[img]http://i.imgur.com/E4m91m0.jpg[/img][/center]


Video
Format : AVC
Codec ID : V_MPEG4/ISO/AVC
Duration : 2 h 19 min
Bit rate : 835 kb/s
Width : 1 280 pixels
Height : 536 pixels
Display aspect ratio : 2.40:1
Frame rate mode : Constant
Frame rate : 23.976 (24000/1001) FPS
Original frame rate : 23.976 (23976/1000) FPS
Stream size : 834 MiB (82%)
Writing library : x264 core 142 r2409 d6b4e63

Audio #1
Format : AAC
Duration : 2 h 19 min
Bit rate : 85.9 kb/s
Channel(s) : 6 channels
Channel positions : Front: L C R, Side: L R, LFE
Sampling rate : 44.1 kHz
Frame rate : 43.066 FPS (1024 spf)
Stream size : 85.8 MiB (8%)
Language : English

Audio #2
Format : AAC
Duration : 2 h 19 min
Bit rate : 90.5 kb/s
Channel(s) : 6 channels
Channel positions : Front: L C R, Side: L R, LFE
Sampling rate : 44.1 kHz
Frame rate : 43.066 FPS (1024 spf)
Stream size : 90.4 MiB (9%)
Language : Hindi

TexDuration : 2 h 9 min
Stream size : 36.2 KiB (0%)
Language : English



Related torrents

Title
Size
Seeds
Peers
Divergent 2014 720p Esub BluRay Dual Audio English Hindi 5.1 GOP in 'Video'
1013.31 MB
-
-

Share