Death Note (EngDub) 720p x265 Download torrent download locations



Torrent contents

Size: 5.02 GB

Hash: ED6A1797FFBA4C2D14C46ECC16781EC3ADE48031

Torrent description(s)

  • thepiratebay
Death Note Complete Series (EngDub) 720p x265 Download 
http://s3.postimg.org/6mye80oz7/death-note-digimaza.jpg

Light Yagami is an ace student with great prospects—and he’s bored out of his mind. But all that changes when he finds the Death Note, a notebook dropped by a rogue Shinigami death god. Any human whose name is written in the notebook dies, and Light has vowed to use the power of the Death Note to rid the world of evil. But will Light succeed in his noble goal, or will the Death Note turn him into the very thing he fights against?
..::File Specs::.. 
General 

Format version : Version 4 / Version 2 
Duration : 23 min 0 s 
Overall bit rate : 805 kb/s 

Video 

Format : HEVC 
Format/Info : High Efficiency Video Coding 
Format profile : Main [email protected]@Main 
Codec ID : V_MPEGH/ISO/HEVC 
Duration : 22 min 59 s 
Bit rate : 713 kb/s 
Width : 1 280 pixels 
Height : 720 pixels 
Display aspect ratio : 16:9 
Frame rate mode : Constant 
Frame rate : 23.976 (24000/1001) FPS 
Color space : YUV 
Chroma subsampling : 4:2:0 
Bit depth : 10 bits 
Bits/(Pixel*Frame) : 0.032 
Stream size : 117 MiB (89%) 
Default : Yes 
Forced : No 

Audio 
ID : 2 
Format : AAC 
Format/Info : Advanced Audio Codec 
Format profile : LC 
Codec ID : A_AAC 
Duration : 23 min 0 s 
Bit rate : 89.6 kb/s 
Channel(s) : 2 channels 
Channel positions : Front: L R 
Sampling rate : 48.0 kHz 
Frame rate : 46.875 FPS (1024 spf) 
Compression mode : Lossy 
Delay relative to video : 9 ms 
Stream size : 14.7 MiB (11%) 
Language : English 

Text #1 

Format : ASS 
Codec ID : S_TEXT/ASS 
Codec ID/Info : Advanced Sub Station Alpha 
Duration : 22 min 50 s 
Bit rate : 192 b/s 
Count of elements : 509 
Compression mode : Lossless 
Language : English 

..::ScreenShots::.. 
 
http://s10.postimg.org/6215duml5/vlcsnap-2017-06-18-00h16m24s068.png  
http://s10.postimg.org/3lzc004ih/vlcsnap-2017-06-18-00h16m34s566.png  
http://s10.postimg.org/greu63ye1/vlcsnap-2017-06-18-00h17m26s156.png 

================================================================ 
Seed Seed Seed Seed Seed Seed Seed Seed Seed Seed Seed Seed Seed 
To direct download or Watch Online this file, Visit. 
Seed Seed Seed Seed Seed Seed Seed Seed Seed Seed Seed Seed Seed 
================================================================

Related torrents

Title
Size
Seeds
Peers
Death Note (EngDub) 720p x265 Download in 'Anime'
5.02 GB
-
-

Share